<?xml version="1.0" encoding="UTF-8" standalone="no"?>
<svg
   xmlns:dc="http://purl.org/dc/elements/1.1/"
   xmlns:cc="http://creativecommons.org/ns#"
   xmlns:rdf="http://www.w3.org/1999/02/22-rdf-syntax-ns#"
   xmlns:svg="http://www.w3.org/2000/svg"
   xmlns="http://www.w3.org/2000/svg"
   xmlns:xlink="http://www.w3.org/1999/xlink"
   id="svg201"
   xml:space="preserve"
   stroke-linejoin="round"
   stroke-width="28.222"
   fill-rule="evenodd"
   preserveAspectRatio="xMidYMid"
   viewBox="1920 7800 17281 17502"
   height="175.02mm"
   width="172.81mm"
   version="1.2"><metadata
   id="metadata205"><rdf:RDF><cc:Work
       rdf:about=""><dc:format>image/svg+xml</dc:format><dc:type
         rdf:resource="http://purl.org/dc/dcmitype/StillImage" /><dc:title></dc:title></cc:Work></rdf:RDF></metadata>
 <defs
   id="defs35">
  <font
   horiz-adv-x="2048"
   id="EmbeddedFont_1">
   <font-face
   id="font-face2"
   descent="503"
   ascent="1879"
   font-style="normal"
   font-weight="normal"
   units-per-em="2048"
   font-family="Roboto Black embedded" />
   <missing-glyph
   id="missing-glyph4"
   d="M 0,0 L 2047,0 2047,2047 0,2047 0,0 Z"
   horiz-adv-x="2048" />
   <glyph
   id="glyph6"
   d="M 1029,444 L 1138,1082 1461,1082 1206,0 921,0 742,642 562,0 277,0 22,1082 345,1082 452,429 624,1082 859,1082 1029,444 Z"
   horiz-adv-x="1456"
   unicode="w" />
   <glyph
   id="glyph8"
   d="M 487,1351 L 487,1082 665,1082 665,848 487,848 487,353 C 487,312 494,284 509,268 524,252 553,244 596,244 629,244 657,246 680,250 L 680,9 C 619,-10 556,-20 490,-20 374,-20 288,7 233,62 178,117 150,200 150,311 L 150,848 12,848 12,1082 150,1082 150,1351 487,1351 Z"
   horiz-adv-x="689"
   unicode="t" />
   <glyph
   id="glyph10"
   d="M 749,777 L 638,785 C 532,785 464,752 434,685 L 434,0 97,0 97,1082 413,1082 424,943 C 481,1049 560,1102 661,1102 697,1102 728,1098 755,1090 L 749,777 Z"
   horiz-adv-x="689"
   unicode="r" />
   <glyph
   id="glyph12"
   d="M 1099,533 C 1099,365 1061,231 986,131 910,30 808,-20 679,-20 580,-20 498,16 434,89 L 434,-416 97,-416 97,1082 412,1082 422,982 C 487,1062 572,1102 677,1102 810,1102 914,1053 988,955 1062,856 1099,721 1099,549 L 1099,533 Z M 762,554 C 762,746 706,842 594,842 514,842 461,813 434,756 L 434,330 C 463,270 517,240 596,240 703,240 759,333 762,518 L 762,554 Z"
   horiz-adv-x="1033"
   unicode="p" />
   <glyph
   id="glyph14"
   d="M 52,551 C 52,659 73,755 115,840 157,924 217,989 296,1034 375,1079 467,1102 573,1102 735,1102 863,1052 956,952 1049,851 1096,715 1096,542 L 1096,530 C 1096,361 1049,228 956,129 862,30 735,-20 575,-20 421,-20 297,26 204,119 111,211 60,336 53,494 L 52,551 Z M 389,530 C 389,430 405,357 436,310 467,263 514,240 575,240 695,240 756,332 759,517 L 759,551 C 759,745 697,842 573,842 460,842 399,758 390,591 L 389,530 Z"
   horiz-adv-x="1086"
   unicode="o" />
   <glyph
   id="glyph16"
   d="M 424,966 C 496,1057 588,1102 700,1102 819,1102 909,1067 970,996 1031,925 1062,821 1063,683 L 1063,0 725,0 725,675 C 725,732 713,775 690,802 667,829 627,842 571,842 502,842 453,820 424,776 L 424,0 87,0 87,1536 424,1536 424,966 Z"
   horiz-adv-x="980"
   unicode="h" />
   <glyph
   id="glyph18"
   d="M 618,-20 C 452,-20 318,30 215,129 112,228 61,356 61,515 L 61,543 C 61,654 82,751 123,836 164,921 223,986 302,1033 381,1079 474,1102 582,1102 734,1102 854,1055 942,961 1030,866 1074,735 1074,566 L 1074,435 404,435 C 416,374 442,327 483,292 524,257 576,240 641,240 748,240 831,277 891,352 L 1045,170 C 1003,112 944,66 867,32 790,-3 707,-20 618,-20 Z M 580,842 C 481,842 423,777 404,646 L 744,646 744,672 C 745,726 732,768 703,798 674,827 633,842 580,842 Z"
   horiz-adv-x="1033"
   unicode="e" />
   <glyph
   id="glyph20"
   d="M 552,240 C 599,240 636,253 662,279 688,304 701,340 700,386 L 1016,386 C 1016,267 974,170 889,94 804,18 694,-20 560,-20 403,-20 279,29 188,128 97,227 52,363 52,538 L 52,552 C 52,661 72,758 113,842 153,925 211,990 287,1035 363,1080 453,1102 557,1102 698,1102 809,1063 892,985 975,907 1016,801 1016,668 L 700,668 C 700,724 686,767 659,797 632,827 595,842 549,842 462,842 411,786 396,675 391,640 389,591 389,529 389,420 402,345 428,303 454,261 495,240 552,240 Z"
   horiz-adv-x="1007"
   unicode="c" />
   <glyph
   id="glyph22"
   d="M 704,0 C 692,22 681,54 672,97 610,19 523,-20 412,-20 310,-20 223,11 152,73 81,134 45,212 45,305 45,422 88,511 175,571 262,631 388,661 553,661 L 657,661 657,718 C 657,817 614,867 528,867 448,867 408,828 408,749 L 71,749 C 71,854 116,939 205,1004 294,1069 407,1102 545,1102 683,1102 792,1068 872,1001 952,934 993,841 995,724 L 995,245 C 996,146 1012,70 1041,17 L 1041,0 704,0 Z M 493,220 C 535,220 570,229 598,247 625,265 645,285 657,308 L 657,481 559,481 C 442,481 383,428 383,323 383,292 393,268 414,249 435,230 461,220 493,220 Z"
   horiz-adv-x="1033"
   unicode="a" />
   <glyph
   id="glyph24"
   d="M 861,387 C 861,438 843,478 807,507 770,536 706,565 615,596 524,627 449,656 391,685 202,778 108,905 108,1067 108,1148 132,1219 179,1281 226,1342 292,1390 378,1425 464,1459 561,1476 668,1476 773,1476 867,1457 950,1420 1033,1383 1097,1330 1143,1261 1189,1192 1212,1113 1212,1024 L 862,1024 C 862,1083 844,1129 808,1162 771,1195 722,1211 660,1211 597,1211 548,1197 512,1170 475,1142 457,1107 457,1064 457,1027 477,993 517,963 557,932 627,901 728,869 829,836 911,801 976,764 1133,673 1212,548 1212,389 1212,262 1164,162 1068,89 972,16 840,-20 673,-20 555,-20 448,1 353,44 257,86 185,144 137,218 88,291 64,376 64,472 L 416,472 C 416,394 436,337 477,300 517,263 582,244 673,244 731,244 777,257 811,282 844,307 861,342 861,387 Z"
   horiz-adv-x="1165"
   unicode="S" />
   <glyph
   id="glyph26"
   d="M 571,1456 L 896,443 1220,1456 1682,1456 1682,0 1330,0 1330,340 1364,1036 1012,0 780,0 427,1037 461,340 461,0 110,0 110,1456 571,1456 Z"
   horiz-adv-x="1588"
   unicode="M" />
   <glyph
   id="glyph28"
   d="M 1013,617 L 461,617 461,270 1113,270 1113,0 110,0 110,1456 1115,1456 1115,1185 461,1185 461,878 1013,878 1013,617 Z"
   horiz-adv-x="1006"
   unicode="E" />
   <glyph
   id="glyph30"
   d="M 110,1 L 110,1456 633,1456 C 820,1456 963,1422 1061,1353 1158,1284 1207,1185 1207,1054 1207,979 1190,914 1155,861 1120,808 1069,768 1002,743 1078,723 1136,686 1177,631 1218,576 1238,509 1238,431 1238,288 1193,180 1103,109 1012,37 878,1 701,1 L 110,1 Z M 461,618 L 461,270 691,270 C 754,270 803,285 837,314 871,343 888,383 888,436 888,557 828,618 707,618 L 461,618 Z M 461,849 L 644,849 C 721,849 775,863 808,890 841,918 857,958 857,1011 857,1073 839,1117 804,1144 769,1171 712,1185 633,1185 L 461,1185 461,849 Z"
   horiz-adv-x="1139"
   unicode="B" />
   <glyph
   id="glyph32"
   d="M 1105,0 L 89,0 89,220 557,712 C 672,843 730,948 730,1025 730,1088 716,1135 689,1168 662,1201 622,1217 570,1217 519,1217 477,1195 445,1152 413,1108 397,1053 397,988 L 59,988 C 59,1077 81,1160 126,1236 171,1311 233,1370 312,1413 391,1456 480,1477 578,1477 735,1477 857,1441 942,1368 1027,1295 1069,1191 1069,1055 1069,998 1058,942 1037,888 1016,833 983,776 938,717 893,657 820,577 720,477 L 532,260 1105,260 1105,0 Z"
   horiz-adv-x="1059"
   unicode="2" />
  </font>
 </defs>
 <defs
   id="defs64">
  <font
   horiz-adv-x="2048"
   id="EmbeddedFont_2">
   <font-face
   id="font-face37"
   descent="503"
   ascent="1879"
   font-style="normal"
   font-weight="bold"
   units-per-em="2048"
   font-family="Roboto Condensed embedded" />
   <missing-glyph
   id="missing-glyph39"
   d="M 0,0 L 2047,0 2047,2047 0,2047 0,0 Z"
   horiz-adv-x="2048" />
   <glyph
   id="glyph41"
   d="M 432,1348 L 432,1082 577,1082 577,869 432,869 432,332 C 432,289 438,260 450,244 461,228 484,220 517,220 544,220 567,222 584,227 L 582,7 C 534,-11 482,-20 426,-20 243,-20 151,85 149,294 L 149,869 24,869 24,1082 149,1082 149,1348 432,1348 Z"
   horiz-adv-x="583"
   unicode="t" />
   <glyph
   id="glyph43"
   d="M 582,290 C 582,314 571,336 548,357 525,377 473,404 394,439 277,486 197,535 154,586 110,637 88,700 88,775 88,870 122,948 191,1010 259,1071 349,1102 462,1102 581,1102 676,1071 747,1010 818,949 854,866 854,763 L 571,763 C 571,851 534,895 461,895 431,895 406,886 387,867 368,848 358,822 358,789 358,765 369,744 390,726 411,707 462,681 541,647 656,604 738,557 786,505 833,452 857,384 857,301 857,204 821,127 748,68 675,9 580,-20 462,-20 383,-20 313,-4 252,27 191,58 144,101 110,156 75,211 58,271 58,335 L 327,335 C 328,286 340,249 362,224 383,199 419,187 468,187 544,187 582,221 582,290 Z"
   horiz-adv-x="821"
   unicode="s" />
   <glyph
   id="glyph45"
   d="M 540,-20 C 395,-20 281,23 200,110 119,197 78,321 78,482 L 78,568 C 78,739 115,870 190,963 265,1056 372,1102 511,1102 647,1102 749,1059 818,972 887,885 922,756 923,585 L 923,446 360,446 C 364,366 382,308 413,271 444,234 493,215 558,215 653,215 732,247 795,312 L 906,141 C 871,93 821,54 755,25 689,-5 617,-20 540,-20 Z M 362,644 L 645,644 645,670 C 644,735 633,784 613,817 593,850 558,867 509,867 460,867 424,849 402,814 379,779 366,722 362,644 Z"
   horiz-adv-x="874"
   unicode="e" />
   <glyph
   id="glyph47"
   d="M 573,956 L 769,1456 1106,1456 764,734 1114,0 773,0 573,509 374,0 33,0 383,734 40,1456 377,1456 573,956 Z"
   horiz-adv-x="1086"
   unicode="X" />
   <glyph
   id="glyph49"
   d="M 558,532 L 412,532 412,0 118,0 118,1456 587,1456 C 734,1456 848,1418 929,1342 1009,1265 1049,1157 1049,1016 1049,823 979,687 838,610 L 1093,14 1093,0 777,0 558,532 Z M 412,777 L 579,777 C 638,777 682,797 711,836 740,875 755,927 755,992 755,1138 698,1211 584,1211 L 412,1211 412,777 Z"
   horiz-adv-x="1006"
   unicode="R" />
   <glyph
   id="glyph51"
   d="M 411,512 L 411,0 117,0 117,1456 613,1456 C 757,1456 872,1411 958,1322 1043,1233 1086,1117 1086,974 1086,831 1044,719 959,636 874,553 757,512 607,512 L 411,512 Z M 411,757 L 613,757 C 669,757 712,775 743,812 774,849 789,902 789,972 789,1045 773,1103 742,1146 711,1189 669,1210 616,1210 L 411,1210 411,757 Z"
   horiz-adv-x="980"
   unicode="P" />
   <glyph
   id="glyph53"
   d="M 501,1456 L 776,403 1050,1456 1434,1456 1434,0 1139,0 1139,394 1166,1001 875,0 675,0 384,1001 411,394 411,0 117,0 117,1456 501,1456 Z"
   horiz-adv-x="1324"
   unicode="M" />
   <glyph
   id="glyph55"
   d="M 411,244 L 927,244 927,0 117,0 117,1456 411,1456 411,244 Z"
   horiz-adv-x="821"
   unicode="L" />
   <glyph
   id="glyph57"
   d="M 424,0 L 130,0 130,1456 424,1456 424,0 Z"
   horiz-adv-x="318"
   unicode="I" />
   <glyph
   id="glyph59"
   d="M 812,298 L 411,298 333,0 22,0 477,1456 746,1456 1204,0 890,0 812,298 Z M 475,543 L 747,543 611,1062 475,543 Z"
   horiz-adv-x="1218"
   unicode="A" />
   <glyph
   id="glyph61"
   d="M 612,506 L 123,506 123,742 612,742 612,506 Z"
   horiz-adv-x="530"
   unicode="-" />
  </font>
</defs>
</svg>
